<?xml version="1.0" standalone="no"?>
<!DOCTYPE svg PUBLIC "-//W3C//DTD SVG 1.1//EN" "http://www.w3.org/Graphics/SVG/1.1/DTD/svg11.dtd" >
<svg xmlns="http://www.w3.org/2000/svg">
<metadata>Generated by IcoMoon</metadata>
<defs>
<font id="icomoon" horiz-adv-x="1024">
<font-face units-per-em="1024" ascent="960" descent="-64" />
<missing-glyph horiz-adv-x="1024" />
<glyph unicode="&#x20;" horiz-adv-x="512" d="" />
<glyph unicode="&#xe90;" glyph-name="box" horiz-adv-x="1081" d="M879.974 945.778l3.347-0.247c7.719-1.081 14.704-5.638 18.853-12.523v0l145.795-234.737 3.947-6.97c9.926-18.887 15.031-40.106 14.738-61.642v0l-0.001-651.768-0.163-3.322c-1.4-14.11-11.672-24.347-24.768-24.347v0l-1005.526 0.179c-12.626 1.537-21.962 12.822-21.962 27.49v0 651.574l0.142 8.13c1.048 21.602 7.429 42.51 18.616 60.924v0l145.127 234.34 2.019 2.845c5.089 6.282 12.724 10.016 20.877 10.074v0h678.958zM369.376 627.717h-301.233v-623.192h944.604v623.192h-316.675v-287.289l-0.305-3.366c-1.040-6.684-4.626-12.996-10.106-17.409-5.147-4.125-11.561-6.379-18.167-6.376-1.737 0.004-3.495 0.169-5.228 0.492v0l-273.305 51.917c-11.364 3.507-19.37 13.978-19.587 26.154v0l0.002 235.877zM642.165 627.717h-218.882v-213.646l218.882-40.837v254.482zM865.149 891.475h-214.269l39.785-209.455h303.129l-128.645 209.455zM595.969 891.475h-124.38l-40.72-209.455h204.878l-39.778 209.455zM416.632 891.475h-200.939l-128.645-209.455h288.834l40.75 209.455z" />
<glyph unicode="&#xe900;" glyph-name="sort" horiz-adv-x="1339" d="M412.231 25.692v782.231c0 32.627-26.45 59.077-59.077 59.077s-59.077-26.45-59.077-59.077v-782.231c0-32.627 26.45-59.077 59.077-59.077s59.077 26.45 59.077 59.077zM354.462 768.944l181.019-181.019c23.071-23.071 60.476-23.071 83.547 0s23.071 60.476 0 83.547l-222.793 222.793c-23.071 23.071-60.476 23.071-83.547 0l-222.793-222.793c-23.071-23.071-23.071-60.476 0-83.547s60.476-23.071 83.547 0l181.019 181.019zM926.846 849.692v-782.231c0-32.627 26.45-59.077 59.077-59.077s59.077 26.45 59.077 59.077v782.231c0 32.627-26.45 59.077-59.077 59.077s-59.077-26.45-59.077-59.077zM984.615 127.524l-181.019 181.019c-23.071 23.071-60.476 23.071-83.547 0s-23.071-60.476 0-83.547l222.793-222.793c23.071-23.071 60.476-23.071 83.547 0l222.793 222.793c23.071 23.071 23.071 60.476 0 83.547s-60.476 23.071-83.547 0l-181.019-181.019z" />
<glyph unicode="&#xe901;" glyph-name="plus" horiz-adv-x="768" d="M736 512h-288v288c0 17.68-14.32 32-32 32h-64c-17.68 0-32-14.32-32-32v-288h-288c-17.68 0-32-14.32-32-32v-64c0-17.68 14.32-32 32-32h288v-288c0-17.68 14.32-32 32-32h64c17.68 0 32 14.32 32 32v288h288c17.68 0 32 14.32 32 32v64c0 17.68-14.32 32-32 32z" />
<glyph unicode="&#xe902;" glyph-name="minus" horiz-adv-x="768" d="M736 512h-704c-17.68 0-32-14.32-32-32v-64c0-17.68 14.32-32 32-32h704c17.68 0 32 14.32 32 32v64c0 17.68-14.32 32-32 32z" />
<glyph unicode="&#xe903;" glyph-name="clock" d="M512 944c-274 0-496-222-496-496s222-496 496-496 496 222 496 496-222 496-496 496zM512 48c-221 0-400 179-400 400s179 400 400 400 400-179 400-400-179-400-400-400zM635.6 256.8l-169.8 123.4c-6.2 4.6-9.8 11.8-9.8 19.4v328.4c0 13.2 10.8 24 24 24h64c13.2 0 24-10.8 24-24v-283.4l133.6-97.2c10.8-7.8 13-22.8 5.2-33.6l-37.6-51.8c-7.8-10.6-22.8-13-33.6-5.2z" />
<glyph unicode="&#xe904;" glyph-name="bag-2" horiz-adv-x="916" d="M460.405 949.76c118.333 0 218.179-91.095 245.827-215.796l2.448-12.171 0.697-7.769-0.015-4.851h45.235c51.271 0 93.985-38.194 100.439-88.227l0.714-7.995 26.251-525.021c2.793-55.865-40.23-103.417-96.095-106.21v0l-1.873-0.075-643.951-0.051c-55.935 0-101.279 45.344-101.279 101.279v0l26.377 530.079c2.695 53.902 47.184 96.221 101.153 96.221v0h48.275l0.015 20.012 1.212 10.214c29.461 122.425 128.4 210.361 244.569 210.361zM754.598 621.864h-45.235l0.015-58.744c0-24.11-19.545-43.655-43.655-43.655-22.255 0-40.621 16.654-43.315 38.179l-0.34 5.476-0.015 58.744h-320.135l0.015-58.744c0-22.255-16.654-40.621-38.179-43.315l-5.476-0.34c-22.255 0-40.621 16.654-43.315 38.179l-0.34 5.476-0.015 58.744h-48.275c-6.203 0-11.499-4.054-13.306-9.707l-0.646-3.565-26.268-525.719c0-7.715 6.254-13.97 13.97-13.97v0l644.644 0.546c6.091 1.754 10.404 7.517 10.074 14.121v0l-26.251 525.021c-0.372 7.435-6.508 13.272-13.952 13.272v0zM460.405 862.451c-70.456 0-133.717-53.617-156.891-132.983l-1.596-5.85v-14.444h320.135v0.431l-1.518 7.49c-18.963 82.086-80.355 140.336-150.882 145.047l-9.248 0.309z" />
<glyph unicode="&#xe905;" glyph-name="facebook" d="M608 768h160v192h-160c-123.514 0-224-100.486-224-224v-96h-128v-192h128v-512h192v512h160l32 192h-192v96c0 17.346 14.654 32 32 32z" />
<glyph unicode="&#xe907;" glyph-name="account" horiz-adv-x="922" d="M182.243 680.704c0 147.1 118.259 266.496 264.324 266.496s264.324-119.396 264.324-266.496c0-90.587-44.848-170.667-113.418-218.828 165.487-66.378 282.861-238.785 282.861-440.116 0-21.208-17.192-38.4-38.4-38.4h-790.733c-21.208 0-38.4 17.192-38.4 38.4 0 201.331 117.374 373.738 282.861 440.116-68.571 48.161-113.418 128.241-113.418 218.828zM446.566 414.208c-184.671 0-337.696-154.764-355.281-354.048h710.563c-17.585 199.284-170.611 354.048-355.281 354.048zM446.566 491.008c103.484 0 187.524 84.848 187.524 189.696s-84.040 189.696-187.524 189.696c-103.484 0-187.524-84.848-187.524-189.696s84.040-189.696 187.524-189.696z" />
<glyph unicode="&#xe908;" glyph-name="pinterest" d="M512 891.6c-245 0-443.6-198.6-443.6-443.6 0-188 117-348.4 282-413-3.8 35-7.4 89 1.6 127.2 8 34.6 52 220.4 52 220.4s-13.2 26.6-13.2 65.8c0 61.6 35.8 107.8 80.2 107.8 37.8 0 56.2-28.4 56.2-62.4 0-38-24.2-95-36.8-147.6-10.6-44.2 22-80.2 65.6-80.2 78.8 0 139.4 83.2 139.4 203.2 0 106.2-76.4 180.4-185.2 180.4-126.2 0-200.2-94.6-200.2-192.6 0-38.2 14.6-79 33-101.2 3.6-4.4 4.2-8.2 3-12.8-3.4-14-10.8-44.2-12.4-50.4-2-8.2-6.4-9.8-14.8-6-55.4 25.8-90 106.8-90 171.8 0 140 101.6 268.4 293 268.4 153.8 0 273.4-109.6 273.4-256.2 0-152.8-96.4-276-230.2-276-45 0-87.2 23.4-101.6 51 0 0-22.2-84.6-27.6-105.4-10-38.6-37-86.8-55.2-116.2 41.6-12.8 85.6-19.8 131.4-19.8 245 0 443.6 198.6 443.6 443.6 0 245.2-198.6 443.8-443.6 443.8z" />
<glyph unicode="&#xe909;" glyph-name="bag" horiz-adv-x="928" d="M103.994 727.68h711.499c37.139 0 67.754-29.123 69.609-66.216l31.75-635.008c1.922-38.444-27.685-71.167-66.129-73.089-1.159-0.058-2.32-0.087-3.48-0.087h-775c-38.492 0-69.696 31.204-69.696 69.696 0 1.161 0.029 2.321 0.087 3.48l31.75 635.008c1.855 37.093 32.47 66.216 69.609 66.216zM756.179 700.363c-28.936 145.446-152.225 251.637-296.702 251.637-137.314 0-256.168-96.033-292.118-231.841-3.392-12.813 4.246-25.951 17.059-29.342s25.951 4.246 29.342 17.059c30.492 115.189 130.661 196.124 245.716 196.124 121.085 0 225.066-89.561 249.624-213.003 2.586-13 15.222-21.442 28.222-18.856s21.442 15.222 18.856 28.222z" />
<glyph unicode="&#xe90a;" glyph-name="delivery" horiz-adv-x="1422" d="M1292.326 674.387l126.732-252.778c2.084-4.147 3.164-8.722 3.164-13.361v-315.981c0-7.924-3.156-15.523-8.774-21.127s-13.238-8.751-21.183-8.751h-99.792c-14.31-73.399-78.766-126.389-153.738-126.389s-139.428 52.99-153.738 126.389h-405.868c-14.31-73.399-78.766-126.389-153.738-126.389s-139.428 52.99-153.738 126.389h-84.024c-7.945 0-15.565 3.148-21.183 8.751s-8.774 13.203-8.774 21.127v185.929h59.913v-156.052h54.067c14.306 73.402 78.764 126.397 153.738 126.397s139.432-52.995 153.738-126.397h307.955v778.101h-669.498v-32.503h-59.913v62.381c0 7.924 3.156 15.523 8.774 21.127s13.238 8.751 21.183 8.751h729.411c7.945 0 15.565-3.147 21.183-8.751s8.774-13.203 8.774-21.127v-239.219h318.535c11.347 0.003 21.721-6.393 26.792-16.517zM425.389-4.246c53.42 0.059 96.712 43.233 96.775 96.512 0 39.037-23.575 74.231-59.735 89.172s-77.784 6.684-105.462-20.918c-27.678-27.602-35.959-69.115-20.982-105.181s50.262-59.584 89.403-59.584zM1247.018 631.149h-300.019v-250.499h415.311v20.54l-115.291 229.959zM1138.739-4.246h0.001c53.416 0.065 96.702 43.237 96.767 96.512 0 39.038-23.575 74.232-59.737 89.172s-77.786 6.683-105.463-20.921c-27.677-27.604-35.956-69.118-20.977-105.184s50.267-59.579 89.408-59.579zM1292.474 122.144h69.835v198.752h-415.311v-198.752h37.999c14.306 73.402 78.764 126.397 153.738 126.397s139.432-52.995 153.738-126.397zM84.342 740.262c0 7.924 3.156 15.524 8.774 21.127s13.238 8.751 21.183 8.751h428.738c10.719 0.024 20.634-5.665 26-14.919s5.367-20.663 0-29.917c-5.367-9.254-15.282-14.943-26-14.919h-428.738c-7.945 0-15.565 3.148-21.183 8.751s-8.774 13.203-8.774 21.127zM0 567.279c0 7.924 3.156 15.523 8.774 21.127s13.238 8.751 21.183 8.751h434.242c16.518-0.038 29.888-13.403 29.888-29.877s-13.37-29.84-29.888-29.877h-434.242c-7.945 0-15.565 3.148-21.183 8.751s-8.774 13.203-8.774 21.127zM385.362 424.173c16.545 0 29.957-13.377 29.957-29.877s-13.412-29.877-29.957-29.877h-271.064c-16.545 0-29.957 13.377-29.957 29.877s13.412 29.877 29.957 29.877h271.064z" />
<glyph unicode="&#xe90b;" glyph-name="chevron-left" horiz-adv-x="658" d="M267.467 439.56l362.039-362.039-103.44-103.44-465.478 465.478 465.478 465.478 103.44-103.44z" />
<glyph unicode="&#xe90c;" glyph-name="instagram" d="M512 867.8c136.8 0 153-0.6 206.8-3 50-2.2 77-10.6 95-17.6 23.8-9.2 41-20.4 58.8-38.2 18-18 29-35 38.4-58.8 7-18 15.4-45.2 17.6-95 2.4-54 3-70.2 3-206.8s-0.6-153-3-206.8c-2.2-50-10.6-77-17.6-95-9.2-23.8-20.4-41-38.2-58.8-18-18-35-29-58.8-38.4-18-7-45.2-15.4-95-17.6-54-2.4-70.2-3-206.8-3s-153 0.6-206.8 3c-50 2.2-77 10.6-95 17.6-23.8 9.2-41 20.4-58.8 38.2-18 18-29 35-38.4 58.8-7 18-15.4 45.2-17.6 95-2.4 54-3 70.2-3 206.8s0.6 153 3 206.8c2.2 50 10.6 77 17.6 95 9.2 23.8 20.4 41 38.2 58.8 18 18 35 29 58.8 38.4 18 7 45.2 15.4 95 17.6 53.8 2.4 70 3 206.8 3zM512 960c-139 0-156.4-0.6-211-3-54.4-2.4-91.8-11.2-124.2-23.8-33.8-13.2-62.4-30.6-90.8-59.2-28.6-28.4-46-57-59.2-90.6-12.6-32.6-21.4-69.8-23.8-124.2-2.4-54.8-3-72.2-3-211.2s0.6-156.4 3-211c2.4-54.4 11.2-91.8 23.8-124.2 13.2-33.8 30.6-62.4 59.2-90.8 28.4-28.4 57-46 90.6-59 32.6-12.6 69.8-21.4 124.2-23.8 54.6-2.4 72-3 211-3s156.4 0.6 211 3c54.4 2.4 91.8 11.2 124.2 23.8 33.6 13 62.2 30.6 90.6 59s46 57 59 90.6c12.6 32.6 21.4 69.8 23.8 124.2 2.4 54.6 3 72 3 211s-0.6 156.4-3 211c-2.4 54.4-11.2 91.8-23.8 124.2-12.6 34-30 62.6-58.6 91-28.4 28.4-57 46-90.6 59-32.6 12.6-69.8 21.4-124.2 23.8-54.8 2.6-72.2 3.2-211.2 3.2v0zM512 711c-145.2 0-263-117.8-263-263s117.8-263 263-263 263 117.8 263 263c0 145.2-117.8 263-263 263zM512 277.4c-94.2 0-170.6 76.4-170.6 170.6s76.4 170.6 170.6 170.6c94.2 0 170.6-76.4 170.6-170.6s-76.4-170.6-170.6-170.6zM846.8 721.4c0-33.91-27.49-61.4-61.4-61.4s-61.4 27.49-61.4 61.4c0 33.91 27.49 61.4 61.4 61.4s61.4-27.49 61.4-61.4z" />
<glyph unicode="&#xe90d;" glyph-name="google-plus" d="M325.8 502.6v-111.8h184.8c-7.4-48-55.8-140.6-184.8-140.6-111.2 0-202 92.2-202 205.8s90.8 205.8 202 205.8c63.4 0 105.6-27 129.8-50.2l88.4 85.2c-56.8 53-130.4 85.2-218.2 85.2-180.2-0.2-325.8-145.8-325.8-326s145.6-325.8 325.8-325.8c188 0 312.8 132.2 312.8 318.4 0 21.4-2.4 37.8-5.2 54h-307.6zM1024 512h-96v96h-96v-96h-96v-96h96v-96h96v96h96z" />
<glyph unicode="&#xe90e;" glyph-name="twitter" d="M806.4 912h157.056l-343.040-393.088 403.584-534.912h-315.968l-247.488 324.48-283.2-324.48h-157.12l366.912 420.48-387.136 507.52h324.032l223.68-296.512 258.752 296.512zM751.36 78.208h87.040l-561.728 744.512h-93.312z" />
<glyph unicode="&#xe90f;" glyph-name="heart" horiz-adv-x="1078" d="M1020.316 586.753h-1.169c-18.686 15.046-42.925 21.41-66.614 17.49 13.942 48.129 16.344 98.855 7.012 148.081-21.036 109.603-100.506 179.563-201.011 179.563-50.253 0-104.012-18.656-156.602-53.636-52.59 36.146-107.518 54.802-158.939 54.802-101.674 0-179.975-71.126-201.011-180.729-16.361-82.785 4.675-173.733 56.096-254.186-6.826-4.277-13.105-9.367-18.699-15.158l-252.432-291.498 229.059-228.534 125.048 165.571 378.649 47.806c25.361 3.131 48.46 16.12 64.277 36.146l209.192 258.85c28.025 35.525 22.302 86.912-12.855 115.433zM287.561 742.996c16.361 87.449 77.132 143.417 155.433 143.417 45.578 0 95.831-19.822 143.746-55.968l14.024-10.494 14.024 10.494c49.084 36.146 98.168 54.802 143.746 54.802 78.301 0 137.903-54.802 155.433-141.085 11.333-67.89-1.483-137.596-36.229-197.053l-139.072-167.903-175.3-41.976-32.723 36.146 126.216 51.304c38.201 17.649 57.101 61.043 43.968 100.948s-54.137 63.674-95.389 55.294l-262.95-65.296c-49.084 72.292-68.951 153.911-54.927 227.368zM995.774 500.47l-208.023-260.016c-8.069-10.219-19.802-16.908-32.723-18.656l-398.516-50.138-105.18-137.587-160.108 159.741 223.216 257.684c7.502 7.891 17.325 13.199 28.048 15.158l274.637 68.794c17.379 2.438 34.010-7.902 39.473-24.541s-1.812-34.793-17.269-43.086l-188.156-75.789 97-106.105 217.372 52.47 4.675 5.83 146.084 176.065h1.169l19.867 24.486c13.249 15.743 36.765 17.829 52.59 4.664h1.169c14.743-12.289 16.827-34.127 4.675-48.972z" />
<glyph unicode="&#xe910;" glyph-name="cross" d="M607.049 447.986l346.399 346.399c8.736 8.736 8.736 22.933 0 31.669l-63.366 63.366c-8.736 8.736-22.933 8.736-31.669 0l-346.399-346.399-346.399 346.427c-8.736 8.736-22.933 8.736-31.669 0l-63.394-63.366c-8.736-8.736-8.736-22.933 0-31.669l346.427-346.427-346.427-346.399c-8.736-8.736-8.736-22.933 0-31.669l63.366-63.366c8.736-8.736 22.933-8.736 31.669 0l346.427 346.399 346.399-346.399c8.736-8.736 22.933-8.736 31.669 0l63.366 63.366c8.736 8.736 8.736 22.933 0 31.669l-346.399 346.399z" />
<glyph unicode="&#xe911;" glyph-name="play" d="M512-46.933c-273.344 0-494.933 221.589-494.933 494.933s221.589 494.933 494.933 494.933c273.344 0 494.933-221.589 494.933-494.933s-221.589-494.933-494.933-494.933zM512-12.8c254.493 0 460.8 206.307 460.8 460.8s-206.307 460.8-460.8 460.8c-254.493 0-460.8-206.307-460.8-460.8s206.307-460.8 460.8-460.8zM447.234 593.388l223.72-162.455-223.72-162.455v324.909z" />
<glyph unicode="&#xe912;" glyph-name="chevron-right" horiz-adv-x="658" d="M418.95 439.561l-362.039 362.039 103.44 103.44 465.478-465.478-465.478-465.478-103.44 103.44z" />
<glyph unicode="&#xe913;" glyph-name="search" d="M914.392 130.036l109.033-109.033-63.889-63.889-187.746 187.746c-172.327-140.345-426.364-130.238-586.923 30.32-171.344 171.344-171.344 449.148 0 620.492s449.148 171.344 620.492 0c171.344-171.344 171.344-449.148 0-620.492v63.889l31.945-31.945-31.945-31.945c-10.786-10.786-21.993-20.892-33.569-30.32l-37.246 37.246 63.889 63.889 224.992-224.992-63.889-63.889-109.033 109.033 63.889 63.889zM741.47 239.069c136.059 136.059 136.059 356.654 0 492.713s-356.654 136.059-492.713 0c-136.059-136.059-136.059-356.654 0-492.713s356.654-136.059 492.713 0z" />
<glyph unicode="&#xe915;" glyph-name="phone" d="M371.967 201.461c-15.365 19.207-69.142 107.557-149.808 80.667-84.507-26.889-295.776-99.874-195.903-230.478 334.188-453.274 1332.91 549.307 883.485 883.501-130.602 96.033-203.586-111.398-230.474-195.907s57.619-134.446 80.666-149.811c57.619-53.778-338.029-445.592-387.965-387.972z" />
<glyph unicode="&#xe916;" glyph-name="account-fill" horiz-adv-x="922" d="M841.933 21.76h-790.733c0 237.951 177.012 430.848 395.366 430.848s395.366-192.897 395.366-430.848zM446.566 452.608c-124.774 0-225.924 102.122-225.924 228.096s101.149 228.096 225.924 228.096c124.774 0 225.924-102.122 225.924-228.096s-101.149-228.096-225.924-228.096z" />
<glyph unicode="&#xe917;" glyph-name="youtube" horiz-adv-x="1152" d="M1099.31 711.834c-12.562 47.3-49.574 84.552-96.568 97.194-85.18 22.972-426.742 22.972-426.742 22.972s-341.56 0-426.742-22.972c-46.994-12.644-84.006-49.894-96.568-97.194-22.824-85.734-22.824-264.61-22.824-264.61s0-178.876 22.824-264.61c12.562-47.3 49.574-83 96.568-95.642 85.182-22.972 426.742-22.972 426.742-22.972s341.56 0 426.742 22.972c46.994 12.642 84.006 48.342 96.568 95.642 22.824 85.734 22.824 264.61 22.824 264.61s0 178.876-22.824 264.61zM464.29 284.818v324.812l285.478-162.41-285.478-162.402z" />
<glyph unicode="&#xe918;" glyph-name="share" horiz-adv-x="939" d="M759.565 293.861c-52.867 0-100.34-23.714-133.787-60.362l-276.205 158.451c5.395 17.246 8.631 36.648 8.631 56.051s-3.237 37.726-8.631 56.051l276.205 158.451c32.368-36.648 79.841-60.362 133.787-60.362 99.261 0 179.102 79.764 179.102 178.931s-79.84 178.931-179.102 178.931c-99.261 0-179.102-79.764-179.102-178.931 0-19.402 3.237-37.726 8.631-56.051l-276.205-158.451c-32.368 36.648-79.841 60.362-133.787 60.362-99.261 0-179.102-79.764-179.102-178.931s79.84-178.931 179.102-178.931c52.867 0 100.34 23.714 133.787 60.362l276.205-158.451c-5.395-17.246-8.631-36.648-8.631-56.051 0-99.166 79.84-178.931 179.102-178.931s179.102 79.764 179.102 178.931c-1.079 98.088-80.92 178.931-179.102 178.931z" />
<glyph unicode="&#xea0c;" glyph-name="info" d="M448 656c0 26.4 21.6 48 48 48h32c26.4 0 48-21.6 48-48v-32c0-26.4-21.6-48-48-48h-32c-26.4 0-48 21.6-48 48v32zM640 192h-256v64h64v192h-64v64h192v-256h64zM512 960c-282.77 0-512-229.23-512-512s229.23-512 512-512 512 229.23 512 512-229.23 512-512 512zM512 32c-229.75 0-416 186.25-416 416s186.25 416 416 416 416-186.25 416-416-186.25-416-416-416z" />
</font>
</defs>
</svg>
